Log in

I forgot my password
 
 
Or
 
Guests : 0
Hidden : 0
Registered : 0
Users Online :
RefreshView the whole list
[NICKELODEON] Νεανικές σειρές! (2011)

Sun Oct 29, 2017 12:09 am by teliosmetonma



ΠΛΗΡΟΦΟΡΙΕΣ ΑΡΧΕΙΟΥ:
General
Complete name : C:\Users\Eleni\Downloads\Νεανικές Σειρές! - Nickelodeon Greece.mp4
Format : MPEG-4
Format profile : Base Media / Version 2
Codec ID : mp42
File size : 2.63 MiB
Duration : 32s 995ms
Overall bit rate mode : Variable
Overall bit rate : 668 Kbps
Encoded date : UTC 2012-06-04 10:53:18
Tagged date : UTC 2012-06-04 10:53:18

Video
ID : 1
Format : AVC
Format/Info : Advanced Video Codec
Format profile : Baseline@L2.1
Format settings, CABAC : No
Format settings, ReFrames : 1 frame
Codec ID : avc1
Codec ID/Info : Advanced Video Coding
Duration : 32s 880ms
Bit rate : 572 Kbps
Maximum bit rate : 1 193 Kbps
Width : 492 pixels
Height : 360 pixels
Display aspect ratio : 4:3
Frame rate mode : Constant
Frame rate : 25.000 fps
Color space : YUV
Chroma subsampling : 4:2:0
Bit depth : 8 bits
Scan type : Progressive
Bits/(Pixel*Frame) : 0.129
Stream size : 2.24 MiB (85%)
Encoded date : UTC 1970-01-01 00:00:00
Tagged date : UTC 2012-06-04 10:53:18

Audio
ID : 2
Format : AAC
Format/Info : Advanced Audio Codec
Format profile : LC
Codec ID : 40
Duration : 32s 995ms
Bit rate mode : Variable
Bit rate : 96.0 Kbps
Maximum bit rate : 113 Kbps
Channel(s) : 2 channels
Channel positions : Front: L R
Sampling rate : 44.1 KHz
Compression mode : Lossy
Stream size : 385 KiB (14%)
Title : IsoMedia File Produced by Google, 5-11-2011
Encoded date : UTC 2012-06-04 10:53:18
Tagged date : UTC 2012-06-04 10:53:18



Preview:

MEGA:



Comments: 0

Statistics
We have 11 registered users
The newest registered user is kati

Our users have posted a total of 84 messages in 26 subjects
Affiliates

GreekToons
Yugioh gr