[NET] Διαφημίσεις (2003)

View previous topic View next topic Go down

20171028

Post 

[NET] Διαφημίσεις (2003)






Το βιντεο περιέχει τις ακολουθες διαφημισεις:


  • ΝΟΥΝΟΥ
  • ΣΟΥΠΕΡ ΛΑΠΤΟΠ
  • STATE DANCE
  • VICHI


ΠΛΗΡΟΦΟΡΙΕΣ ΑΡΧΕΙΟΥ:
General
Complete name                  : C:\Users\Eleni\Downloads\Διαφημίσεις ΝΕΤ 2003 by dmylonas1993.mp4
Format                         : MPEG-4
Format profile                 : Base Media / Version 2
Codec ID                       : mp42
File size                      : 5.31 MiB
Duration                       : 1mn 27s
Overall bit rate mode          : Variable
Overall bit rate               : 508 Kbps
Encoded date                   : UTC 2016-11-21 19:57:06
Tagged date                    : UTC 2016-11-21 19:57:06

Video
ID                             : 1
Format                         : AVC
Format/Info                    : Advanced Video Codec
Format profile                 : Baseline@L2.1
Format settings, CABAC         : No
Format settings, ReFrames      : 1 frame
Codec ID                       : avc1
Codec ID/Info                  : Advanced Video Coding
Duration                       : 1mn 27s
Bit rate                       : 410 Kbps
Maximum bit rate               : 954 Kbps
Width                          : 480 pixels
Height                         : 360 pixels
Display aspect ratio           : 4:3
Frame rate mode                : Constant
Frame rate                     : 25.000 fps
Color space                    : YUV
Chroma subsampling             : 4:2:0
Bit depth                      : 8 bits
Scan type                      : Progressive
Bits/(Pixel*Frame)             : 0.095
Stream size                    : 4.28 MiB (81%)
Tagged date                    : UTC 2016-11-21 19:57:06

Audio
ID                             : 2
Format                         : AAC
Format/Info                    : Advanced Audio Codec
Format profile                 : LC
Codec ID                       : 40
Duration                       : 1mn 27s
Bit rate mode                  : Variable
Bit rate                       : 96.0 Kbps
Maximum bit rate               : 103 Kbps
Channel(s)                     : 2 channels
Channel positions              : Front: L R
Sampling rate                  : 44.1 KHz
Compression mode               : Lossy
Stream size                    : 1.00 MiB (19%)
Title                          : IsoMedia File Produced by Google, 5-11-2011
Encoded date                   : UTC 2016-11-21 19:57:06
Tagged date                    : UTC 2016-11-21 19:57:06


Preview: 

MEGA: 
avatar
teliosmetonma
Admin

Αριθμός μηνυμάτων : 51
Ημερομηνία εγγραφής : 2017-10-13

View user profile http://www.yugioh.gr

Back to top Go down

- Similar topics
Share this post on: diggdeliciousredditstumbleuponslashdotyahoogooglelive

 
Permissions in this forum:
You cannot reply to topics in this forum