[NICKELODEON] Sam & Cat κάθε Σ/Κ στις 23:00 (2017)

View previous topic View next topic Go down

20171029

Post 

[NICKELODEON] Sam & Cat κάθε Σ/Κ στις 23:00 (2017)






ΠΛΗΡΟΦΟΡΙΕΣ ΑΡΧΕΙΟΥ:
General
Complete name : C:\Users\Eleni\Pictures\gx greek\nickn\uploads\διαφημισεις\Sam & Cat κάθε Σαββατοκυριακο στις 23.00.mp4
Format : MPEG-4
Format profile : Base Media / Version 2
Codec ID : mp42
File size : 10.1 MiB
Duration : 33s 3ms
Overall bit rate mode : Variable
Overall bit rate : 2 556 Kbps
Encoded date : UTC 2017-10-29 08:12:12
Tagged date : UTC 2017-10-29 08:24:53
Writing application : HandBrake 0.9.8 2012071700

Video
ID : 1
Format : AVC
Format/Info : Advanced Video Codec
Format profile : Main@L3
Format settings, CABAC : Yes
Format settings, ReFrames : 4 frames
Codec ID : avc1
Codec ID/Info : Advanced Video Coding
Duration : 33s 0ms
Bit rate : 2 392 Kbps
Width : 720 pixels
Height : 576 pixels
Display aspect ratio : 16:9
Frame rate mode : Constant
Frame rate : 25.000 fps
Standard : PAL
Color space : YUV
Chroma subsampling : 4:2:0
Bit depth : 8 bits
Scan type : Progressive
Bits/(Pixel*Frame) : 0.231
Stream size : 9.41 MiB (94%)
Writing library : x264 core 120
Encoding settings : cabac=1 / ref=1 / deblock=1:0:0 / analyse=0x1:0x111 / me=hex / subme=2 / psy=1 / psy_rd=1.00:0.00 / mixed_ref=0 / me_range=16 / chroma_me=1 / trellis=0 / 8x8dct=0 / cqm=0 / deadzone=21,11 / fast_pskip=1 / chroma_qp_offset=0 / threads=3 / sliced_threads=0 / nr=0 / decimate=1 / interlaced=0 / bluray_compat=0 / constrained_intra=0 / bframes=3 / b_pyramid=2 / b_adapt=1 / b_bias=0 / direct=1 / weightb=1 / open_gop=0 / weightp=1 / keyint=250 / keyint_min=25 / scenecut=40 / intra_refresh=0 / rc_lookahead=10 / rc=crf / mbtree=1 / crf=20.0 / qcomp=0.60 / qpmin=3 / qpmax=69 / qpstep=4 / ip_ratio=1.40 / aq=1:1.00
Encoded date : UTC 2017-10-29 08:12:12
Tagged date : UTC 2017-10-29 08:24:53
Color range : Limited
Color primaries : BT.601 NTSC
Transfer characteristics : BT.709
Matrix coefficients : BT.601

Audio
ID : 2
Format : AAC
Format/Info : Advanced Audio Codec
Format profile : LC
Codec ID : 40
Duration : 33s 3ms
Bit rate mode : Variable
Bit rate : 160 Kbps
Maximum bit rate : 181 Kbps
Channel(s) : 2 channels
Channel positions : Front: L R
Sampling rate : 48.0 KHz
Compression mode : Lossy
Stream size : 644 KiB (6%)
Title : Stereo
Language : Greek
Encoded date : UTC 2017-10-29 08:12:12
Tagged date : UTC 2017-10-29 08:24:53


MEGA:

Αποκλειστικά για το Ad Paradise!
avatar
teliosmetonma
Admin

Αριθμός μηνυμάτων : 51
Ημερομηνία εγγραφής : 2017-10-13

View user profile http://www.yugioh.gr

Back to top Go down

- Similar topics
Share this post on: diggdeliciousredditstumbleuponslashdotyahoogooglelive

[NICKELODEON] Sam & Cat κάθε Σ/Κ στις 23:00 (2017) :: Comments

Post on Mon Oct 30, 2017 8:37 pm by george100

Ευχαριστώ! Με αποκωδικοποιητή τα γράφεις;

Back to top Go down

Post  by Sponsored content

Back to top Go down

View previous topic View next topic Back to top


 
Permissions in this forum:
You cannot reply to topics in this forum