[NICKELODEON] Διαφήμιση για τα νέα επεισόδια iCarly! (2011)

Go down

20171029

Post 

[NICKELODEON] Διαφήμιση για τα νέα επεισόδια iCarly! (2011)






ΠΛΗΡΟΦΟΡΙΕΣ ΑΡΧΕΙΟΥ:
General
Complete name : C:\Users\Eleni\Downloads\Διαφήμιση για τα νέα επεισόδια iCarly!.mp4
Format : MPEG-4
Format profile : Base Media / Version 2
Codec ID : mp42
File size : 1.44 MiB
Duration : 28s 282ms
Overall bit rate mode : Variable
Overall bit rate : 427 Kbps
Encoded date : UTC 2014-03-14 12:56:03
Tagged date : UTC 2014-03-14 12:56:03

Video
ID : 1
Format : AVC
Format/Info : Advanced Video Codec
Format profile : Baseline@L2.1
Format settings, CABAC : No
Format settings, ReFrames : 1 frame
Codec ID : avc1
Codec ID/Info : Advanced Video Coding
Duration : 28s 200ms
Bit rate : 329 Kbps
Maximum bit rate : 655 Kbps
Width : 492 pixels
Height : 360 pixels
Display aspect ratio : 4:3
Frame rate mode : Constant
Frame rate : 25.000 fps
Color space : YUV
Chroma subsampling : 4:2:0
Bit depth : 8 bits
Scan type : Progressive
Bits/(Pixel*Frame) : 0.074
Stream size : 1.11 MiB (77%)
Tagged date : UTC 2014-03-14 12:56:04

Audio
ID : 2
Format : AAC
Format/Info : Advanced Audio Codec
Format profile : LC
Codec ID : 40
Duration : 28s 282ms
Bit rate mode : Variable
Bit rate : 96.0 Kbps
Maximum bit rate : 101 Kbps
Channel(s) : 2 channels
Channel positions : Front: L R
Sampling rate : 44.1 KHz
Compression mode : Lossy
Stream size : 332 KiB (23%)
Title : IsoMedia File Produced by Google, 5-11-2011
Encoded date : UTC 2014-03-14 12:56:03
Tagged date : UTC 2014-03-14 12:56:04


Preview: 

MEGA:




Last edited by teliosmetonma on Fri Apr 20, 2018 5:11 pm; edited 1 time in total
avatar
teliosmetonma
Admin

Αριθμός μηνυμάτων : 52
Ημερομηνία εγγραφής : 2017-10-13

View user profile http://www.yugioh.gr

Back to top Go down

- Similar topics
Share this post on: diggdeliciousredditstumbleuponslashdotyahoogooglelive

[NICKELODEON] Διαφήμιση για τα νέα επεισόδια iCarly! (2011) :: Comments

Post on Sun Oct 29, 2017 11:08 am by george100

Θενξ! Πάντως, γιατί στις πληροφορίες αρχείου το username είναι "Ελένη";

Back to top Go down

Post  by Sponsored content

Back to top Go down

Back to top


 
Permissions in this forum:
You cannot reply to topics in this forum