Log in

I forgot my password
 
 
Or
 
Guests : 0
Hidden : 0
Registered : 0
Users Online :
RefreshView the whole list
[NICKELODEON] Song x2 + All Cartoon Bumpers (2012)

Sun Oct 29, 2017 3:15 pm by teliosmetonma

By JasonC



ΠΛΗΡΟΦΟΡΙΕΣ ΑΡΧΕΙΟΥ:
General
Complete name                  : D:\Nickelodeon (Greece) Song x2 + All Cartoon Bumpers.mp4
Format                         : MPEG-4
Format profile                 : Base Media / Version 2
Codec ID                       : mp42
File size                      : 46.5 MiB
Duration                       : 3mn 52s
Overall bit rate mode          : Variable
Overall bit rate               : 1 681 Kbps
Encoded date                   : UTC 2016-08-24 22:42:16
Tagged date                    : UTC 2016-08-24 22:42:16
gsst                           : 0
gstd                           : 232385

Video
ID                             : 1
Format                         : AVC
Format/Info                    : Advanced Video Codec
Format profile                 : Main@L3.1
Format settings, CABAC         : Yes
Format settings, ReFrames      : 3 frames
Codec ID                       : avc1
Codec ID/Info                  : Advanced Video Coding
Duration                       : 3mn 52s
Bit rate                       : 1 551 Kbps
Width                          : 1 280 pixels
Height                         : 720 pixels
Display aspect ratio           : 16:9
Frame rate mode                : Constant
Frame rate                     : 29.970 fps
Color space                    : YUV
Chroma subsampling             : 4:2:0
Bit depth                      : 8 bits
Scan type                      : Progressive
Bits/(Pixel*Frame)             : 0.056
Stream size                    : 42.9 MiB (92%)
Title                          : ISO Media file produced by Google Inc.
Encoded date                   : UTC 2016-08-24 22:42:16
Tagged date                    : UTC 2016-08-24 22:42:16

Audio
ID                             : 2
Format                         : AAC
Format/Info                    : Advanced Audio Codec
Format profile                 : LC
Codec ID                       : 40
Duration                       : 3mn 52s
Bit rate mode                  : Variable
Bit rate                       : 126 Kbps
Channel(s)                     : 2 channels
Channel positions              : Front: L R
Sampling rate                  : 44.1 KHz
Compression mode               : Lossy
Stream size                    : 3.48 MiB (7%)
Title                          : ISO Media file produced by Google Inc.
Encoded date                   : UTC 2016-08-24 22:42:16
Tagged date                    : UTC 2016-08-24 22:42:16



Link: 



Comments: 13

Statistics
We have 11 registered users
The newest registered user is abc1234567

Our users have posted a total of 83 messages in 26 subjects
Affiliates

GreekToons
Yugioh gr